February 21, 2019
colombiana 2011 brrip xvid ac3 » Colombiana (2011) BRRip XviD AC3-M777 M2Tv

Colombiana (2011) BRRip XviD AC3-M777 M2Tv

Colombiana (2011) BRRip XviD AC3-M777 M2Tv Language: English 01:43:27 | 640
February 21, 2019
hoyle card games 2012 tinyiso » Hoyle Card Games 2012-TiNYiSO

Hoyle Card Games 2012-TiNYiSO

Hoyle Card Games 2012-TiNYiSO Description: Shuffle the cards and deal yourself in to the greatest card game collection of all time. With over 150 game variations, Hoyle Card Games 2012 is the largest & most comprehensive collection of card games available for your PC & Mac! Choose card game favorites like Poker, Gin Rummy and Hearts or try your hand at Cribbage, Euchre or Spades
February 21, 2019
trackmania 2 canyon 2011 multi20 » TrackMania 2 Canyon 2011 MULTi20 Repack

TrackMania 2 Canyon 2011 MULTi20 Repack

TrackMania 2 Canyon 2011 MULTi20 Repack | 1.47 GB Genre: Arcade, Racing (Cars) | Platform: PC | MULTi20 Download Code: http://www.wupload.com/file/192085548 http://www.wupload.com/file/192085544 http://www.wupload.com/file/192085540 http://www.wupload.com/file/192085538
February 21, 2019
kate bush 50 words for » Kate Bush ? 50 Words For Snow (iTunes Version)-2011

Kate Bush ? 50 Words For Snow (iTunes Version)-2011

Description: 2011 release from the acclaimed British singer/songwriter. 50 Words For Snow features seven tracks set against a background of falling snow, with a total running time of 65 minutes; through a highly evocative musical and lyrical landscape this haunting album once again pushes the boundaries of Kate Bush?s art. The album features a number of special guest musicians including Elton John, Andy Fairweather Low and, on the title track, the British writer/broadcaster/raconteur Stephen Fry.
February 21, 2019
dream theater live at the » Dream Theater – Live At The Marquee (1993) FLAC

Dream Theater – Live At The Marquee (1993) FLAC

Dream Theater – Live At The Marquee (1993) EAC Rip | 1CD | FLAC (image) – Cue – Log | Artwork | Release: 1993 | 360 MB Genre: Progressive Metal | Label: ATCO Records, Manufactured in Germany Tracklist: 01.
February 21, 2019
the conspirator 2011 dvdrip xvid » The Conspirator 2011 DVDRip Xvid AC3 – [DiVERSiTY]

The Conspirator 2011 DVDRip Xvid AC3 – [DiVERSiTY]

The Conspirator 2011 DVDRip Xvid AC3 – [DiVERSiTY] –==[I.N.F.O]==– Code: General Info Complete name : The Conspirator 2011 DVDRip Xvid AC3 - DiVERSiTY.avi Format : AVI Format/Info : Audio Video Interleave Format profile : OpenDML Format settings : rec File size : 2.04 GiB Duration : 1h 57mn Overall bit rate : 2 492 Kbps Writing application : AVI-Mux GUI 1.17.8.3, Feb 16 201019:42:50 Source : DVD-R...DVDMANIA...Thx Encoder : MGW012 Video ID : 0 Format : MPEG-4 Visual Format profile : Advanced Simple@L5 Format settings, BVOP : 2 Format settings, QPel : No Format settings, GMC : No warppoints Format settings, Matrix : Default (H.263) Codec ID : XVID Codec ID/Hint : XviD Duration : 1h 57mn Bit rate : 2 039 Kbps Width : 720 pixels Height : 400 pixels Display aspect ratio : 16:9 Frame rate : 25.000 fps Color space : YUV Chroma subsampling : 4:2:0 Bit depth : 8 bits Scan type : Progressive Compression mode : Lossy Bits/(Pixel*Frame) : 0.283 Stream size : 1.67 GiB (82%) Writing library : XviD 1.2.1 (UTC 2008-12-04) Audio ID : 1 Format : AC-3 Format/Info : Audio Coding 3 Mode extension : CM (complete main) Codec ID : 2000 Duration : 1h 57mn Bit rate mode : Constant Bit rate : 448 Kbps Channel(s) : 6 channels Channel positions : Front: L C R, Side: L R, LFE Sampling rate : 48.0 KHz Bit depth : 16 bits Compression mode : Lossy Stream size : 376 MiB (18%) Alignment : Aligned on interleaves Interleave, duration : 64 ms (1.60 video frames) Interleave, preload duration : 192 ms Title : VTS_02_1 T80 3_2ch 448Kbps DELAY 0ms_new iMDB RATING:7.0/10 IMDB Link:http://www.imdb.com/title/tt0968264/ James McAvoy ... Frederick Aiken Robin Wright ...
February 21, 2019
immortals 2011 dvdscr cropped x264 » Immortals (2011) DVDscr CROPPED x264-DooSH

Immortals (2011) DVDscr CROPPED x264-DooSH

Immortals (2011) DVDscr CROPPED x264-DooSH | Language: English | XVID 487 Kbps, 720
February 21, 2019
rise of immortals » Rise of Immortals

Rise of Immortals

Rise of Immortals Description: developer: Petroglyph drafter: Petroglyph genre: strategy / RTS platform: PC / Windows release date: World: 12 September 2011 USA: 12 September 2011 Europe: 12 September 2011 play modes: multiplayer multiplayer: Internet | number of players: 1-10 game language: English age requirements: everyone suggested system requirements: Pentium 4 3 GHz, 1 GB RAM (2 GB RAM – Vista/7), graphic card 256 MB (GeForce 8600 or better), 9 GB HDD, Windows XP/Vista/7. Rise of Immortals is an online, free-to-play PC game that expands on the hit Multiplayer Online Battle Arena (MOBA) genre with new, innovative features designed to appeal to both core and casual players. Rise of Immortals is set in the world of Graxia, 300 years after the events of ?Guardians of Graxia,??
February 21, 2019
warhammer 40000 space marine » Warhammer 40,000 : Space Marine + Multiplayer (Full ISO/2011)

Warhammer 40,000 : Space Marine + Multiplayer (Full ISO/2011)

Warhammer 40,000 : Space Marine + Multiplayer (Full ISO/2011) 2011 l PC l Developer: Relic Entertainment l drafter: THQ l 2.11 GB Genre: RPG (Rogue / Action) / 3D / 3rd Person Horde of bloodthirsty orcs invaded the planet, a forge, which produces combat vehicles for the Imperium of Mankind. Space Marines, battle hardened veteran of the Order of the Ultramarines Captain Titus and his party must keep the defense before the arrival of the Imperial Navy strike force. With the enemy a huge advantage in numbers on the side of people the best fighters and most powerful weapon.
February 21, 2019
va colors of indian music » VA – Colors Of Indian Music (2010) (5 CDs)

VA – Colors Of Indian Music (2010) (5 CDs)

VA – Colors Of Indian Music (2010) (5 CDs) 5CDs | Genre: World | Release: 2010 | MP3 320 kbps | 407 MB Tracklist: Colors Of Indian Music – Strings Of India vol.1 [01]. Rahul Sharma & Pandit Shivkumar Sharma – Santoor [02].
February 21, 2019
dia frampton red 2011 c4 » Dia Frampton-Red-2011-C4

Dia Frampton-Red-2011-C4

Tracklist: 01: Dia Frampton – Don’t Kick The Chair (Feat. KiD CuDi) (03:34) 02: Dia Frampton – Isabella (03:08) 03: Dia Frampton – The Broken Ones (04:14) 04: Dia Frampton – Good Boy (03:00) 05: Dia Frampton – I Will (Feat. Blake Shelton) (03:28) 06: Dia Frampton – Billy The Kid (03:47) 07: Dia Frampton – Daniel (03:35) 08: Dia Frampton – Walk Away (04:14) 09: Dia Frampton – Bullseye (03:24) 10: Dia Frampton – Trapeze (03:31) Release name: Dia_Frampton-Red-2011-C4 Artist: Dia Frampton Album: Red Genre: Alternative Year: 2011 Size: 67.44MB Code: http://www.fileserve.com/file/ZW4s6dt
February 21, 2019
bean 1997 720p bluray x264 » Bean (1997) 720p BluRay x264 AVS720

Bean (1997) 720p BluRay x264 AVS720

Code: Bean.1997.720p.BluRay.x264-AVS720 # **************************** # Release Date ······ :2010/09/29 # Video Bitrate ..... :X264 5495K # Audio Bitrate ......:DTS 1536K # Frame Rate .......